The Smiths Gloucester Leisure Centre 18th October 1986

Reply to topic
 
Author Message

soundsville ®

Gender: Unknown

Longevity: 6 years 5 months

Posts: 35

Location: Sydney

Post 11-May-2011 06:13

[Quote]

18 October 1986
Leisure Centre, Gloucester
The Queen Is Dead
Panic
I Want The One I Can't Have
Vicar In A Tutu
There Is A Light That Never Goes Out
Ask
(Marie's The Name) His Latest Flame/Rusholme Ruffians
Frankly, Mr. Shankly
The Boy With The Thorn In His Side
What She Said (with Rubber Ring intro and outro)
Is It Really So Strange?
Never Had No One Ever
Cemetry Gates
London
Meat Is Murder
I Know It's Over
/The Draize Train
/How Soon Is Now?
//Still Ill
//Bigmouth Strikes Again
Hopefully this will be at least an upgrade......
This show just 3 days after Wolverhampton was, I think much much better. I got a better recording, had a better time and I think it was not just me.
The Smiths seemed well up for it and played really well.
This transfer is direct from my master, I think I've managed to split the tracks this time but I'm buggered if I can figure out how to do it.
I use Audacity on a Mac.....anyway.....onwards..............
[Profile] [PM]

georgethetwentythird

Gender: Unknown

Longevity: 6 years 3 months

Posts: 49

Location: Hull UK

Post 11-May-2011 10:44 (after 4 hours)

[Quote]

Thanks again. These concerts are great :)
Tim
[Profile] [PM]

bobbyp

Gender: Unknown

Longevity: 10 years

Posts: 54

Post 11-May-2011 11:13 (after 28 minutes)

[Quote]

Really appreciate these upgrades/alternative versions.
Cheers, Rob.
[Profile] [PM]

DavidA

Gender: Unknown

Longevity: 11 years

Posts: 1406

Post 11-May-2011 17:16 (after 6 hours)

[Quote]

Many thanks :) Look forward to listening later.
[Profile] [PM]

the Flea

Gender: Unknown

Longevity: 11 years

Posts: 552

Location: Manchester

Post 11-May-2011 17:28 (after 12 minutes)

[Quote]

Many thanks for this ;)
[Profile] [PM]

DavidA

Gender: Unknown

Longevity: 11 years

Posts: 1406

Post 11-May-2011 18:33 (after 1 hour 4 minutes)

[Quote]

So this is the same as this, but taken from the master? Sounds like the same recording to me. Great quality.
[Profile] [PM]

monsterH

Gender: Unknown

Longevity: 11 years

Posts: 682

Post 11-May-2011 18:55 (after 21 minute)

[Quote]

Thanks for unearthing and sharing!
[Profile] [PM]

steve

Gender: Unknown

Longevity: 11 years

Posts: 399

Post 11-May-2011 19:24 (after 29 minutes)

[Quote]

So this is the same as this, but taken from the master? Sounds like the same recording to me. Great quality.
as I said in that post
This is another of Paul's recordings ... taken from the copy he made me. This is the first time I've put this on CD.
Paul recorded all the later QID dates, which I've only posted 1st gen copies of. Hopefully he'll find the masters of the others too.
[Profile] [PM]

MacPhisto247

Gender: Unknown

Longevity: 11 years

Posts: 127

Location: California

Post 12-May-2011 07:06 (after 11 hours)

[Quote]

all the same, in that, thanks for sharing your master. really looking forward to this recording. :D
[Profile] [PM]

toulouse

Gender: Unknown

Longevity: 8 years 7 months

Posts: 69

Post 13-May-2011 17:19 (after 1 day 10 hours)

[Quote]

Many thanks for the upgrade, I was at this gig. Happy days!
[Profile] [PM]

DavidA

Gender: Unknown

Longevity: 11 years

Posts: 1406

Post 08-Apr-2012 20:02 (after 10 months 26 days)

[Quote]

The text files that Paul's included in his recordings are Audacity label files. You can convert them to CUEs using lbl2cue.
[code:1]TITLE "The Smiths Gloucester Leisure Centre 18th October 1986"
PERFORMER "The Smiths"
FILE "The Smiths Gloucester Leisure Centre 18th October 1986.flac" WAVE
REM NEW-TRACK
TRACK 01 AUDIO
TITLE "The Queen Is Dead"
INDEX 01 00:00:00
REM NEW-TRACK
TRACK 02 AUDIO
TITLE "Panic"
INDEX 01 04:26:00
REM NEW-TRACK
TRACK 03 AUDIO
TITLE "I Want The One I Can't Have"
INDEX 01 07:43:21
REM NEW-TRACK
TRACK 04 AUDIO
TITLE "Vicar In A Tutu"
INDEX 01 11:27:51
REM NEW-TRACK
TRACK 05 AUDIO
TITLE "There Is A Light That Never Goes Out"
INDEX 01 14:19:24
REM NEW-TRACK
TRACK 06 AUDIO
TITLE "Ask"
INDEX 01 18:59:33
REM NEW-TRACK
TRACK 07 AUDIO
TITLE "(Marie's The Name) His Latest Flame/Rusholme Ruffians"
INDEX 01 22:21:69
REM NEW-TRACK
TRACK 08 AUDIO
TITLE "Frankly, Mr. Shankly"
INDEX 01 26:26:56
REM NEW-TRACK
TRACK 09 AUDIO
TITLE "The Boy With The Thorn In His Side"
INDEX 01 29:17:21
REM NEW-TRACK
TRACK 10 AUDIO
TITLE "What She Said (with Rubber Ring intro and outro)"
INDEX 01 33:15:60
REM NEW-TRACK
TRACK 11 AUDIO
TITLE "Is It Really So Strange?"
INDEX 01 37:18:02
REM NEW-TRACK
TRACK 12 AUDIO
TITLE "Never Had No One Ever"
INDEX 01 40:48:51
REM NEW-TRACK
TRACK 13 AUDIO
TITLE "Cemetry Gates"
INDEX 01 43:54:33
REM NEW-TRACK
TRACK 14 AUDIO
TITLE "London"
INDEX 01 46:41:18
REM NEW-TRACK
TRACK 15 AUDIO
TITLE "Meat Is Murder"
INDEX 01 49:33:19
REM NEW-TRACK
TRACK 16 AUDIO
TITLE "I Know It's Over"
INDEX 01 56:39:57
REM NEW-TRACK
TRACK 17 AUDIO
TITLE "The Draize Train"
INDEX 01 64:33:62
REM NEW-TRACK
TRACK 18 AUDIO
TITLE "How Soon Is Now?"
INDEX 01 70:05:72
REM NEW-TRACK
TRACK 19 AUDIO
TITLE "Still Ill"
INDEX 01 75:38:63
REM NEW-TRACK
TRACK 20 AUDIO
TITLE "Bigmouth Strikes Again"
INDEX 01 80:10:32
REM END-TITLE
[/code:1]
[Profile] [PM]
Display posts:    
Reply to topic

Current time is: 20-Aug 15:22

All times are UTC ± 0



You cannot post new topics in this forum
You cannot reply to topics in this forum
You cannot edit your posts in this forum
You cannot delete your posts in this forum
You cannot vote in polls in this forum
You cannot attach files in this forum
You cannot download files in this forum