Morrissey-Live at the Hollywood Bowl 2007

Go to page :  1, 2  Next

Reply to topic
 
Author Message

pierre brasseur ®

Gender: Unknown

Longevity: 8 years 7 months

Posts: 47

Post 05-Dec-2011 11:43

[Quote]

RETIRED. BETTER QUALITY VERSION HERE.
Dvd in one file (mkv), I think both the audio and video are in excellent quality.
Enjoy !
[Profile] [PM]

pierre brasseur ®

Gender: Unknown

Longevity: 8 years 7 months

Posts: 47

Post 05-Dec-2011 11:51 (after 8 minutes)

[Quote]

If someone can download it and tell me if it work well it will be great.
More information :
HD video
5.1 audio
[Profile] [PM]

the Flea

Gender: Unknown

Longevity: 11 years

Posts: 552

Location: Manchester

Post 05-Dec-2011 12:45 (after 54 minutes)

[Quote]

Well its on the tracker and its showing that you are seeding, so its looking good ;-)
[Profile] [PM]

DavidA

Gender: Unknown

Longevity: 11 years

Posts: 1406

Post 05-Dec-2011 14:27 (after 1 hour 41 minute)

[Quote]

I have this file already so I'll seed it with you.
Do you have the DVD itself? I assume not. Looks like you got this from the same place as me!
[Profile] [PM]

psycoserra

Gender: Unknown

Longevity: 6 years 5 months

Posts: 9

Post 05-Dec-2011 14:31 (after 4 minutes)

[Quote]

Great!
Thanks...
[Profile] [PM]

psycoserra

Gender: Unknown

Longevity: 6 years 5 months

Posts: 9

Post 05-Dec-2011 14:33 (after 1 minute)

[Quote]

I don´t yet understand how can I seed to others?
Could you give me a help?
Should I stay logged in? Sugestions?
Thanks in advance.
[Profile] [PM]

pierre brasseur ®

Gender: Unknown

Longevity: 8 years 7 months

Posts: 47

Post 05-Dec-2011 14:40 (after 7 minutes)

[Quote]

DavidA
I don't have the real dvd promo, but I have the copy from 3 differents people (2 dvd copy and this). And I think this one is real the best version.
[Profile] [PM]

SweetFA

Gender: Unknown

Longevity: 11 years

Posts: 1136

Location: KissMyShades

Post 05-Dec-2011 15:11 (after 31 minute)

[Quote]

Does this have menus & chapters?
[Profile] [PM]

anovella

Gender: Unknown

Longevity: 11 years

Posts: 1014

Location: Barcelona

Post 05-Dec-2011 15:22 (after 10 minutes)

[Quote]

Does this have menus & chapters?
Hi SweetFA
This is only a one file in MKV format
No Menu
No Chapters
Saludos.
[Profile] [PM]

SweetFA

Gender: Unknown

Longevity: 11 years

Posts: 1136

Location: KissMyShades

Post 05-Dec-2011 15:38 (after 16 minutes)

[Quote]

Does this have menus & chapters?
Hi SweetFA
This is only a one file in MKV format
No Menu
No Chapters
Saludos.
Thanks.
I'll stick with the inferior copy for now i think, plays nicely from a USB stick in my Wii :-)
[Profile] [PM]

zivilars

Gender: Unknown

Longevity: 11 years

Posts: 18

Post 05-Dec-2011 15:42 (after 3 minutes)

[Quote]

Thanks Pierre, highly appreciated!!!
[Profile] [PM]

robbo123

Gender: Unknown

Longevity: 11 years

Posts: 129

Location: Florida

Post 05-Dec-2011 23:46 (after 8 hours)

[Quote]

Definitely not HD at that file size.
[Profile] [PM]

DavidA

Gender: Unknown

Longevity: 11 years

Posts: 1406

Post 06-Dec-2011 00:16 (after 29 minutes)

[Quote]

[code:1]General
Complete name : MHB2007.mkv
Format : Matroska
File size : 1.64 GiB
Duration : 1h 40mn
Overall bit rate : 2 338 Kbps
Encoded date : UTC 2011-11-09 01:36:01
Writing library : WonderShare Matroska Muxer
Video
ID : 1
Format : AVC
Format/Info : Advanced Video Codec
Format profile : Baseline@L3.0
Format settings, CABAC : No
Format settings, ReFrames : 1 frame
Codec ID : V_MPEG4/ISO/AVC
Duration : 1h 40mn
Bit rate : 2 035 Kbps
Width : 720 pixels
Height : 480 pixels
Display aspect ratio : 3:2
Frame rate : 29.970 fps
Original frame rate : 29.000 fps
Standard : NTSC
Color space : YUV
Chroma subsampling : 4:2:0
Bit depth : 8 bits
Scan type : Progressive
Bits/(Pixel*Frame) : 0.196
Stream size : 1.43 GiB (87%)
Audio
ID : 2
Format : AC-3
Format/Info : Audio Coding 3
Mode extension : CM (complete main)
Codec ID : A_AC3
Duration : 1h 40mn
Bit rate mode : Constant
Bit rate : 256 Kbps
Channel(s) : 6 channels
Channel positions : Front: L C R, Side: L R, LFE
Sampling rate : 44.1 KHz
Bit depth : 16 bits
Compression mode : Lossy
Delay relative to video : 31ms
Stream size : 184 MiB (11%)[/code:1]
[Profile] [PM]

smorrissey

Gender: Unknown

Longevity: 11 years

Posts: 160

Post 06-Dec-2011 02:39 (after 2 hours 23 minutes)

[Quote]

May i ask, is this a join of both files or a brand new rip?
[Profile] [PM]

DavidA

Gender: Unknown

Longevity: 11 years

Posts: 1406

Post 06-Dec-2011 08:00 (after 5 hours)

[Quote]

New rip. I'm still hoping someone comes through with the DVD.
[Profile] [PM]
Display posts:    
Reply to topic

Current time is: 21-Nov 15:38

All times are UTC ± 0



You cannot post new topics in this forum
You cannot reply to topics in this forum
You cannot edit your posts in this forum
You cannot delete your posts in this forum
You cannot vote in polls in this forum
You cannot attach files in this forum
You cannot download files in this forum